#TITLE:Kissy Kissy;
#SUBTITLE:;
#ARTIST:.....;
#TITLETRANSLIT:;
#SUBTITLETRANSLIT:;
#ARTISTTRANSLIT:;
#CREDIT:YamiRyou;
#BANNER:bn.png;
#BACKGROUND:bg.jpg;
#LYRICSPATH:;
#CDTITLE:;
#MUSIC:KissyKissy.ogg;
#OFFSET:0.000;
#SAMPLESTART:48.700;
#SAMPLELENGTH:12.000;
#SELECTABLE:YES;
#BPMS:0.000=276.056,2.000=276.028,3.000=275.999,12.000=276.056,14.000=276.028,15.000=275.999,25.000=276.056,27.000=275.999,28.000=276.028,29.000=275.999,38.000=276.028,39.000=275.999,40.000=276.028,41.000=275.999,42.000=276.028,43.000=275.999,51.000=276.028,52.000=275.999,53.000=276.028,54.000=275.970,55.000=276.028,56.000=275.999,59.000=276.028,60.000=275.999,64.000=276.028,65.000=275.999,68.000=276.028,69.000=275.999,72.000=276.028,73.000=275.999,77.000=276.028,78.000=275.999,81.000=276.028,82.000=275.999,85.000=276.028,86.000=275.999,90.000=276.028,91.000=275.999,94.000=276.028,95.000=275.999,98.000=276.028,99.000=275.999,103.000=276.028,104.000=275.999,107.000=276.028,108.000=275.999,109.000=275.970,110.000=275.999,111.000=276.028,112.000=275.999,116.000=276.028,117.000=275.999,124.000=276.028,125.000=275.999,129.000=276.028,130.000=275.999,137.000=276.028,138.000=275.999,141.000=276.028,142.000=275.999,149.000=276.028,150.000=275.999,154.000=276.028,155.000=275.999,162.000=276.028,163.000=275.999,167.000=276.028,168.000=275.999,175.000=276.028,176.000=275.999,180.000=276.028,181.000=275.999,188.000=276.028,189.000=275.999,193.000=276.028,194.000=275.999,201.000=276.028,202.000=275.999,206.000=276.028,207.000=275.999,214.000=276.028,215.000=275.999,218.000=275.970,219.000=276.028,220.000=275.999,232.000=276.028,233.000=275.999,245.000=276.028,246.000=275.999,258.000=276.028,259.000=275.999,270.000=276.028,271.000=275.999,283.000=276.028,284.000=275.999,296.000=276.028,297.000=275.999,309.000=276.028,310.000=275.999,322.000=276.028,323.000=275.999,335.000=276.028,336.000=275.999,347.000=276.028,348.000=275.999,360.000=276.028,361.000=275.999,373.000=276.028,374.000=275.999,386.000=276.028,387.000=275.999,399.000=276.028,400.000=275.999,412.000=276.028,413.000=275.999,424.000=276.028,425.000=275.999,439.000=276.028,440.000=275.999,452.000=276.028,453.000=275.999,464.000=276.028,465.000=275.999,477.000=276.028,478.000=275.999,490.000=276.028,491.000=275.999,503.000=276.028,504.000=275.999,516.000=276.028,517.000=275.999,529.000=276.028,530.000=275.999,541.000=276.028,542.000=275.999,554.000=276.028,555.000=275.999,567.000=276.028,568.000=275.999,580.000=276.028,581.000=275.999,593.000=276.028,594.000=275.999,606.000=276.028,607.000=275.999,618.000=276.028,619.000=275.999,631.000=276.028,632.000=275.999,644.000=276.028,645.000=275.999,657.000=276.028,658.000=275.999,670.000=276.028,671.000=275.999,683.000=276.028,684.000=275.999;
#STOPS:;
#BGCHANGES:;
// cache tags:
#FIRSTBEAT:7.000;
#LASTBEAT:683.500;
#SONGFILENAME:Songs/Music V.I.P ^_^/Kissy Kissy/KissyKissy.sm;
#HASMUSIC:1;
#HASBANNER:1;
#MUSICLENGTH:149.207;
// end cache tags

//---------------dance-single - ----------------
#NOTES:
     dance-single:
     :
     Hard:
     16:
     1.000,1.000,1.000,0.550,0.238,807.000,339.000,82.000,0.000,52.000:
0000
0000
0000
0000
,
0000
0000
0000
2000
,
0000
0000
0000
0000
,
0000
0000
0000
3000
0000
0000
0000
0000
,
0002
0000
0000
0000
,
0000
0000
0000
0000
,
0000
0000
0000
0000
0000
0000
0000
0000
0000
0000
0010
0100
1003
0100
0010
0001
,
0010
0100
1000
0100
0010
0001
0010
0100
1000
0000
0000
0000
0000
0000
0000
0000
,
0010
0100
0010
1000
,
0010
0100
0001
1000
,
0010
0100
0010
1000
,
0001
0100
0010
1000
,
0001
0100
0010
1000
,
0010
0100
0001
1000
,
0010
0100
0001
1000
,
0020
0000
0000
0030
0000
0000
0000
0000
,
1000
0010
0100
0001
,
1000
0010
0100
0010
,
1000
0001
0100
0010
,
1000
0010
0100
0001
,
1000
0001
0100
1000
,
0010
0100
0001
0010
,
1000
0010
0100
0001
,
0220
0000
0000
0330
2002
0000
3003
0000
,
0101
0000
1010
0100
0010
0000
1010
0000
,
0110
1000
0001
0100
,
0001
0000
1001
0010
0100
0000
1001
0100
,
0010
0000
0010
0000
0101
0010
0100
0010
,
1100
0000
0010
0100
1000
0000
0001
0000
,
0100
0001
1000
0001
,
1000
0000
0001
1000
1001
0000
0001
0000
,
0100
1001
1001
0000
,
0010
0000
0101
0010
0100
0000
0010
0000
,
0100
0001
1000
0001
,
0100
0000
0001
0010
1100
0000
1000
0100
,
0011
0000
0001
0000
0101
0010
1000
0101
,
0010
0000
0010
0100
1000
0000
0010
0000
,
0100
0010
1000
0010
,
0100
0000
0101
0010
0101
1000
0101
0010
,
1100
0000
2002
3003
,
1010
0000
0110
0000
1001
0000
0100
0010
,
1000
0001
0010
0000
,
0010
0100
0010
1000
,
0001
1000
0010
0000
,
0010
0000
1000
0000
0010
0000
0010
0100
,
0010
0001
0100
0000
,
0001
1000
0101
1010
,
0101
1010
0101
0000
,
0110
0000
1000
0000
0001
0000
0100
0010
,
0100
1000
0010
0000
,
0010
1000
0010
0100
,
0001
1000
0001
0000
,
0001
0100
0010
1000
,
0001
0100
0010
1000
,
0001
0100
0010
1000
,
0220
0000
0000
0330
2002
0000
3003
0000
,
0100
1000
0000
0000
0010
0001
0000
0000
0100
1000
0000
0000
0010
0001
0000
0000
,
0010
0100
0010
1000
,
0010
1000
0010
1000
,
0010
1000
0010
0110
,
0001
0010
0000
0000
0010
0001
0000
0000
0001
0010
0000
0000
0010
0001
0000
0000
,
1001
0100
0001
0100
,
0001
0100
0001
0100
,
1001
1001
1001
0000
,
0001
0010
0000
0000
1000
0100
0000
0000
0001
0010
0000
0000
1000
0100
0000
0000
,
0010
1000
0001
1000
,
0010
1000
0001
0010
,
0100
0001
0100
0001
,
1000
0100
0000
0000
0100
1000
0000
0000
1000
0100
0000
0000
0100
1000
0000
0000
,
0010
1000
0001
0100
,
1001
0110
1001
0110
,
2002
0000
0000
3003
0000
0000
0000
0000
,
1001
0000
1001
0110
1001
0000
1010
0000
,
0110
1010
0011
0101
,
0011
0000
0001
0110
1100
0000
1000
0110
,
0011
0000
1001
0000
1001
1010
0101
0010
,
1100
0000
0010
0011
1100
0000
0011
0000
,
1100
0011
1100
0011
,
1100
0000
0101
1010
0101
0000
0101
0000
,
1100
0101
1100
0000
,
1001
0000
0100
1100
0011
0000
1010
0000
,
0101
0011
1100
0101
,
0110
0000
0011
0110
1100
0000
1100
0110
,
0011
0000
1001
0000
0101
1010
1000
0101
,
1010
0000
1001
0010
1100
0000
0110
0000
,
0101
0110
1010
0110
,
0101
0000
0101
1010
0101
0010
1001
0010
,
1101
0000
2002
3003
,
0001
0010
0000
0000
0100
1000
0000
0000
0001
0010
0000
0000
0100
1000
0000
0000
,
1010
1110
0101
0111
,
0110
1010
0110
0101
,
0101
1010
0110
0110
,
0100
1000
0000
0000
0010
0100
0000
0000
0001
0010
0000
0000
0010
0100
0000
0000
,
0101
0110
0111
0110
,
1010
1110
1010
1011
,
1001
1011
1101
0000
,
1000
0010
0000
0000
0001
0100
0000
0000
1000
0010
0000
0000
0001
0100
0000
0000
,
1010
0100
0101
1010
,
0101
1100
0111
1010
,
1110
0101
1101
0101
,
1000
0001
0000
0000
0001
1000
0000
0000
1000
0001
0000
0000
0001
1000
0000
0000
,
0110
1010
0101
0110
,
1001
0110
1001
0110
,
2000
0000
0000
0000
0000
0000
0000
0000
0000
0000
0000
0000
0100
0000
0000
0010
3000
0000
0001
0000
0000
0010
0000
0000
0100
0000
0000
1000
0000
0000
0100
0000
0000
0010
0000
0000
0001
0000
0000
0000
0000
0000
0000
0000
0000
0000
0000
0000
,
2001
0000
0110
3000
1102
0000
0110
0003
,
2001
0110
3101
1010
,
0120
0030
2010
3002
1103
0000
2010
3000
,
0102
0003
1200
0300
0120
0030
2010
3000
,
0102
0000
1010
0003
2010
0000
0110
3000
,
0102
0000
1010
0003
1100
0000
0101
0000
,
1200
0300
0120
0030
2100
3000
0102
0003
,
0210
0300
1010
0000
2102
3003
0101
0000
,
2011
0000
0100
3000
0102
0000
1010
0003
,
2110
0101
3010
1010
,
0102
0000
0113
2000
3102
0003
0201
0300
,
1020
0030
2100
3000
0102
0003
0210
0300
,
1020
0000
1100
0030
2101
0000
0010
3000
,
0112
0000
1010
0003
1100
0000
0120
0030
,
0201
0300
1120
0030
0102
0003
0211
0300
,
1020
0030
0000
0000
2000
3000
0020
0030
,
2000
3000
0000
0000
0002
0003
2000
3000
,
0020
0030
0000
0000
0200
0300
0002
0003
,
2000
3000
0000
0000
0002
0003
0200
0300
,
0002
0003
0000
0000
2000
3000
0002
0003
,
0200
0300
0000
0000
0020
0030
2000
3000
,
0002
0003
0000
0000
0200
0300
0010
0000
,
1001
0000
1001
0000
1001
0000
0011
0110
,
1100
0000
1001
0000
1100
0110
0011
0110
,
0101
0000
1010
0110
1010
0000
1101
0000
,
0110
1010
0101
0110
,
0101
0000
1001
0011
1100
0000
1001
0110
,
0011
0000
0110
0000
0011
1010
0101
0010
,
1100
0000
0110
0100
1010
0000
0101
0000
,
1100
0101
1100
0101
,
1010
0000
0101
1010
0011
0100
0101
0010
,
0100
0000
2002
3003
,
0100
0010
0000
0000
0010
0100
0000
0000
0100
0010
0000
0000
0010
0100
0000
0000
,
0101
0110
1010
0110
,
0101
0111
1010
1110
,
0101
1010
1110
0101
,
0001
0010
0000
0000
1000
0100
0000
0000
0001
0010
0000
0000
1000
0100
0000
0000
,
1010
1110
1001
1011
,
0101
0111
1010
1110
,
1011
1001
1001
0000
,
1000
0001
0000
0000
0001
1000
0000
0000
1000
0001
0000
0000
0001
1000
0000
0000
,
1010
0101
1110
0101
,
0111
1010
1011
0101
,
1101
1110
1001
1110
,
0001
1000
0000
0000
0100
1000
0000
0000
0001
0100
0000
0000
0100
0001
0000
0000
,
1100
1101
0101
0111
,
1010
1110
0101
0111
,
0001
0010
0100
1001
0010
0100
1001
0010
0100
1001
0010
0100
1000
0000
0100
0000
,
0001
0010
0100
0001
1000
0100
0010
1000
,
0001
0010
0100
0001
0100
1001
0100
1000
,
0101
0010
0100
1001
0010
0101
0010
1001
,
0010
1000
0101
0010
0100
1000
0010
0100
,
1000
0001
0100
0010
0001
1000
0010
0100
,
1000
0001
1010
0100
0010
0101
1000
0101
,
0010
0101
1000
0101
0010
1001
0100
0010
,
0101
1000
0101
1000
0101
0100
0010
0100
,
1000
0001
0100
0010
0001
1000
0010
0100
,
1000
0001
0010
0101
1000
0101
0010
0101
,
1000
0101
0010
0101
1000
0101
0010
0101
,
1000
0110
1001
0010
0100
1000
0010
0100
,
1000
0001
1000
0100
0010
1000
0001
0010
,
0100
0001
1010
0100
1010
0101
0010
1001
,
0010
0101
1000
0101
0010
0100
1010
0100
,
0010
0000
1001
0100
0010
1001
0100
0010
1001
0100
0010
1001
0100
0010
0001
0000
,
2200
0000
0000
0000
,
0000
0000
0000
0000
,
0000
0000
0000
0000
0000
0000
0000
3300
;
